<?xml version="1.0" standalone="no"?>
<!DOCTYPE svg PUBLIC "-//W3C//DTD SVG 1.1//EN" "http://www.w3.org/Graphics/SVG/1.1/DTD/svg11.dtd" >
<svg xmlns="http://www.w3.org/2000/svg">
<metadata></metadata>
<defs>
<font id="mulibold" horiz-adv-x="1272" >
<font-face units-per-em="2048" ascent="1638" descent="-410" />
<missing-glyph horiz-adv-x="601" />
<glyph horiz-adv-x="0" />
<glyph unicode="&#xd;" horiz-adv-x="599" />
<glyph unicode=" "  horiz-adv-x="601" />
<glyph unicode="&#x09;" horiz-adv-x="601" />
<glyph unicode="&#xa0;" horiz-adv-x="601" />
<glyph unicode="!" horiz-adv-x="688" d="M180 0v273h314v-273h-314zM191 1456h295l-74 -1069h-147z" />
<glyph unicode="&#x22;" horiz-adv-x="703" d="M62 1456h239l-51 -499h-135zM405 1456h238l-51 -499h-134z" />
<glyph unicode="#" horiz-adv-x="1465" d="M89 449l9 159h259l52 262h-267l9 158h290l85 434h243l-85 -434h230l86 434h243l-85 -434h221l-7 -158h-247l-52 -262h252l-7 -159h-276l-90 -459h-243l90 459h-230l-90 -459h-243l89 459h-236zM600 608h230l52 262h-230z" />
<glyph unicode="$" horiz-adv-x="1238" d="M115 143q74 -72 199 -115.5t264 -49.5v-197h100v198q96 6 176.5 32t146.5 73.5t103 126t37 180.5q0 164 -70 256t-248 163q-28 11 -145 49v405q199 -4 318 -117l130 168q-90 86 -186.5 124t-261.5 43v144h-100v-144q-206 -9 -334 -111.5t-128 -283.5q0 -158 81 -250.5 t261 -160.5q17 -6 37 -12.5t45 -14.5t38 -12v-442q-86 6 -188 42.5t-167 87.5zM387 1098q0 69 51.5 109t139.5 52v-366q-120 44 -155.5 85.5t-35.5 119.5zM678 198v405q65 -24 104 -46t58.5 -48t25 -50t5.5 -63q0 -174 -193 -198z" />
<glyph unicode="%" horiz-adv-x="1899" d="M97 1094q0 175 99 277.5t269 102.5q169 0 268.5 -103t99.5 -277q0 -179 -99 -279t-269 -100t-269 100.5t-99 278.5zM308 1094q0 -117 39 -170t118 -53t118 52.5t39 169.5q0 113 -37.5 169t-119.5 56t-119.5 -55.5t-37.5 -168.5zM386 0l931 1456h203l-931 -1456h-203z M1066 359q0 162 101 271.5t266 109.5t267 -110t102 -271q0 -166 -101 -272.5t-267 -106.5t-267 107t-101 272zM1276 360q0 -117 39 -170.5t118 -53.5t118.5 53t39.5 170q0 112 -38 168t-120 56q-81 0 -119 -55t-38 -168z" />
<glyph unicode="&#x26;" horiz-adv-x="1587" d="M113 422q0 77 24 142.5t71 118.5t97.5 92t121.5 81q-81 89 -117 153t-36 146q0 150 102 232.5t256 82.5q72 0 138 -19t119.5 -55.5t85.5 -96.5t32 -136q0 -193 -248 -354l298 -326q101 190 101 461l228 -49q1 -154 -45 -313t-124 -278q38 -40 76.5 -69t86.5 -51 t71.5 -30.5t78.5 -26.5l-161 -146q-99 17 -155 51t-140 123q-198 -183 -446 -183q-224 0 -369.5 121.5t-145.5 328.5zM360 423q0 -103 76.5 -170t192.5 -67q157 0 296 128l-358 384q-98 -56 -152.5 -119t-54.5 -156zM519 1150q0 -95 93 -190q73 46 113.5 92t40.5 101 q0 58 -36.5 85.5t-86.5 27.5q-56 0 -90 -28.5t-34 -87.5z" />
<glyph unicode="'" horiz-adv-x="484" d="M131 1456h258l-37 -546h-182z" />
<glyph unicode="(" horiz-adv-x="689" d="M118 665q0 409 279 851h242q-131 -205 -202 -426t-71 -427q0 -188 74.5 -410t198.5 -424h-233q-130 198 -209 415t-79 421z" />
<glyph unicode=")" horiz-adv-x="689" d="M51 -191q131 205 202 426t71 428q0 188 -75 410t-198 423h234q129 -197 208 -414.5t79 -421.5q0 -409 -279 -851h-242z" />
<glyph unicode="*" horiz-adv-x="1054" d="M91 1110l86 179l243 -125l-30 292h235l-34 -292l248 125l82 -179l-280 -108l216 -231l-183 -127l-169 248l-169 -249l-183 127l217 232z" />
<glyph unicode="+" horiz-adv-x="1268" d="M137 470v206h382v395h231v-395h380v-206h-381v-393h-233v393h-379z" />
<glyph unicode="," horiz-adv-x="545" d="M52 -229l112 497h278l-179 -497h-211z" />
<glyph unicode="-" horiz-adv-x="741" d="M54 457v190h632v-190h-632z" />
<glyph unicode="." horiz-adv-x="539" d="M111 0v271h290v-271h-290z" />
<glyph unicode="/" horiz-adv-x="684" d="M-81 -237l645 1693h220l-650 -1693h-215z" />
<glyph unicode="0" d="M124 741q0 353 132.5 547.5t381.5 194.5q245 0 377.5 -199t132.5 -543q0 -229 -57 -399.5t-173.5 -267.5t-281.5 -97q-243 0 -377.5 207.5t-134.5 556.5zM384 739q0 -124 13 -219t41.5 -170.5t79.5 -115.5t122 -40q249 0 249 546q0 106 -13 196t-40.5 166.5t-77 120 t-117.5 43.5q-71 0 -123 -43.5t-80 -120t-41 -166.5t-13 -197z" />
<glyph unicode="1" d="M259 1084v230q147 47 320 142h225v-1258h262v-198h-773v202h257v996q-143 -67 -291 -114z" />
<glyph unicode="2" d="M126 1337q8 6 22.5 15.5t63.5 34.5t100.5 44t130.5 34.5t157 15.5q201 0 322.5 -122t121.5 -351q0 -48 -8.5 -94t-19.5 -81t-34.5 -76t-39 -66t-49 -64t-49.5 -56.5t-54 -57.5l-290 -305h533v-208h-844v183l421 468q51 57 70 78.5t50.5 63t42.5 66.5t20.5 61t9.5 75 q0 29 -7 80q-9 55 -29.5 93.5t-50 59t-63 29.5t-75.5 9q-28 0 -58 -4.5t-58 -12t-56 -17t-52 -20t-46.5 -21t-39.5 -20t-30 -17t-20 -12.5l-7 -4z" />
<glyph unicode="3" d="M149 1343q117 78 207.5 109t246.5 31q92 0 174.5 -24t149 -69.5t106 -119.5t39.5 -167q0 -77 -26.5 -146t-90 -123.5t-155.5 -68.5q143 -26 224.5 -123.5t81.5 -228.5q0 -100 -39.5 -183.5t-106 -138t-154 -84.5t-184.5 -30q-83 0 -160.5 12.5t-128.5 30.5t-90.5 36.5 t-57.5 31.5l-18 12l77 191q15 -10 52.5 -28.5t122 -43.5t160.5 -25q135 0 207 61.5t72 168.5q0 114 -97.5 170.5t-270.5 56.5h-32l-64 -2l-2 215h72q194 0 273.5 51t79.5 182q0 80 -75 124.5t-173 44.5q-47 0 -90 -8t-78 -22.5t-57 -26t-49 -28.5t-33 -21zM243 291h1h-1z " />
<glyph unicode="4" d="M107 381v189l584 886h286v-876h229v-199h-224v-381h-258v381h-617zM389 580h339v554q-22 -35 -339 -554z" />
<glyph unicode="5" d="M161 177l133 190q69 -84 155 -128.5t168 -44.5q112 0 190 73t78 208q0 107 -52.5 183.5t-140.5 76.5q-122 0 -167 -65l-253 34v752h809v-217h-585l-12 -373q71 94 259 94q165 0 284.5 -141t119.5 -348q0 -96 -29.5 -178t-80 -139.5t-118 -98t-143 -59.5t-154.5 -19 q-126 0 -247.5 51.5t-213.5 148.5z" />
<glyph unicode="6" d="M152 698q0 163 38.5 304.5t111 249t185.5 169.5t253 62q230 0 370 -130l-84 -189q-130 102 -284 102q-137 0 -226 -130t-97 -326q107 152 290 152q217 0 345.5 -131.5t128.5 -354.5q0 -218 -136 -358.5t-360 -140.5q-175 0 -297 91t-180 251.5t-58 378.5zM434 469 q0 -62 22 -115.5t58 -87.5t79 -53t87 -19q108 0 175 79.5t67 199.5q0 123 -59.5 202t-167.5 79q-120 0 -190.5 -79.5t-70.5 -205.5z" />
<glyph unicode="7" d="M145 1248v208h1013v-194l-573 -1262h-272l551 1248h-719z" />
<glyph unicode="8" horiz-adv-x="1274" d="M139 395q0 121 65.5 216.5t181.5 152.5q-218 124 -218 335q0 178 129.5 281t334.5 103q218 0 343.5 -105.5t125.5 -289.5q0 -222 -215 -327q106 -53 175.5 -155.5t69.5 -218.5q0 -128 -70 -223t-180.5 -141t-241.5 -46q-143 0 -255 48t-178.5 144t-66.5 226zM398 409 q0 -101 63.5 -155.5t173.5 -54.5q112 0 175.5 53t63.5 161q0 85 -67.5 160t-165.5 101q-107 -24 -175 -96t-68 -169zM424 1083q0 -81 55.5 -140t154.5 -85q99 29 154 89.5t55 147.5q0 76 -60 120.5t-150 44.5q-97 0 -153 -44.5t-56 -132.5z" />
<glyph unicode="9" d="M109 991q0 214 137 353t363 139q245 0 378.5 -181.5t133.5 -530.5q0 -234 -65 -413t-193.5 -281.5t-304.5 -102.5q-168 0 -377 103l92 206q131 -87 264 -87q67 0 125 24.5t105 74.5t74 135.5t27 198.5v26q-91 -138 -292 -138q-212 0 -339.5 131t-127.5 343zM365 996 q0 -119 60.5 -193.5t175.5 -74.5q117 0 189.5 74t72.5 214q0 105 -66.5 177.5t-176.5 72.5q-116 0 -185.5 -74.5t-69.5 -195.5z" />
<glyph unicode=":" horiz-adv-x="591" d="M134 -15v270h311v-270h-311zM134 900v271h310l1 -271h-311z" />
<glyph unicode=";" horiz-adv-x="539" d="M66 -229l108 497h280l-178 -497h-210zM179 900v271h252v-271h-252z" />
<glyph unicode="&#x3c;" horiz-adv-x="1416" d="M148 509v115l1053 491v-227l-725 -319l721 -310v-223z" />
<glyph unicode="=" horiz-adv-x="1479" d="M216 261v200h1046v-200h-1046zM217 667v201h1043v-201h-1043z" />
<glyph unicode="&#x3e;" horiz-adv-x="1418" d="M214 39v233l720 301l-715 324v226l1050 -499v-124z" />
<glyph unicode="?" horiz-adv-x="1018" d="M146 1202v211q135 72 325 72q119 0 216 -38.5t159 -122t62 -200.5q0 -61 -22.5 -116t-58.5 -97t-79.5 -81.5t-87 -78t-79.5 -78.5t-58.5 -90.5t-22.5 -106.5v-65h-199v137q0 53 19.5 103t50 90t68 78.5t75 74t68 70t50 74t19.5 79.5q0 78 -55.5 114.5t-147.5 36.5 q-78 0 -164.5 -22t-137.5 -44zM259 0v273h313v-273h-313z" />
<glyph unicode="@" horiz-adv-x="1814" d="M106 665q0 187 68 342.5t185 258.5t273.5 160t333.5 57q156 0 292.5 -51t235.5 -141t156.5 -219t57.5 -279q0 -127 -47.5 -250.5t-133.5 -206t-185 -82.5q-103 0 -165 61.5t-62 148.5q-28 -92 -102 -150t-190 -58q-61 0 -120.5 23.5t-109.5 67.5t-81 117.5t-31 163.5 q0 112 43.5 210.5t111 162t145.5 99.5t150 36q158 0 204 -114l20 96h218l-89 -474q-20 -101 -20 -164v-14q0 -31 14.5 -60t42.5 -29q30 0 67.5 30.5t73 82.5t60 134.5t24.5 173.5q0 106 -32.5 194.5t-87.5 148t-128.5 101t-154.5 60t-167 18.5q-139 0 -258 -40t-211 -118.5 t-144.5 -205.5t-52.5 -291q0 -121 36.5 -222.5t99.5 -172t147 -119.5t177.5 -72t193.5 -23q240 0 472 132l81 -118q-244 -171 -574 -171q-178 0 -331.5 54t-265.5 152t-176 242.5t-64 317.5zM728 593q0 -65 36 -105t92 -40q67 0 120 53.5t80.5 137t27.5 178.5 q0 65 -33.5 99.5t-89.5 34.5q-72 0 -126.5 -56.5t-80.5 -136.5t-26 -165z" />
<glyph unicode="A" horiz-adv-x="1458" d="M12 0l585 1456h258l590 -1456h-287l-141 355h-588l-138 -355h-279zM524 592h390q-115 341 -193 567q-65 -189 -197 -567z" />
<glyph unicode="B" horiz-adv-x="1367" d="M190 0v1456h403q63 0 113 -2.5t114.5 -11t113.5 -24t99 -43.5t82.5 -66.5t53 -96t20.5 -129.5q0 -216 -193 -311q130 -35 195 -131.5t65 -229.5q0 -83 -33 -155.5t-97 -130.5t-168.5 -91.5t-236.5 -33.5h-531zM444 852h217q51 0 94 9.5t81.5 31.5t60.5 62t22 96 q0 108 -75 147.5t-236 39.5h-164v-386zM447 217h229q307 0 307 205q0 128 -68.5 176t-244.5 48h-223v-429z" />
<glyph unicode="C" horiz-adv-x="1436" d="M106 727q0 148 40.5 273.5t109.5 213t160 149.5t192 91t207 29q286 0 486 -157l-99 -177q-166 115 -366 115q-93 0 -176.5 -37t-147.5 -104t-102 -169t-38 -224q0 -241 136 -387t344 -146q219 0 402 147l85 -201q-212 -165 -504 -165q-144 0 -274 49.5t-232 141.5 t-162.5 236.5t-60.5 321.5z" />
<glyph unicode="D" horiz-adv-x="1571" d="M190 0v1456h406q437 0 653 -185.5t216 -533.5q0 -361 -211.5 -549t-616.5 -188h-447zM444 218h206q264 0 405 132t141 388q0 243 -142.5 371.5t-434.5 128.5h-175v-1020z" />
<glyph unicode="E" horiz-adv-x="1249" d="M190 0v1456h919v-218h-665v-389h629v-219h-626v-412h691v-218h-948z" />
<glyph unicode="F" horiz-adv-x="1145" d="M190 0v1456h889v-218h-635v-397h598v-219h-598v-622h-254z" />
<glyph unicode="G" horiz-adv-x="1538" d="M105 704q0 125 31.5 240.5t96 213.5t155.5 170.5t216.5 113.5t272.5 41q103 0 187.5 -14.5t144.5 -41.5t89 -44.5t64 -44.5l-102 -178q-143 104 -382 104q-126 0 -226 -47t-160 -126t-91 -175t-31 -201q0 -115 31 -210t91 -164.5t154.5 -108t216.5 -38.5q121 0 249 38 v344h-340v217h598v-705q-249 -111 -519 -111q-359 0 -552.5 196t-193.5 531z" />
<glyph unicode="H" horiz-adv-x="1572" d="M190 0v1456h254v-599h683v599h254v-1456h-249v637h-683v-637h-259z" />
<glyph unicode="I" horiz-adv-x="586" d="M160 0v1456h254v-1456h-254z" />
<glyph unicode="J" horiz-adv-x="1019" d="M96 -267l46 193q137 -44 229 -44q205 0 205 228v1346h254v-1334q0 -218 -109 -335.5t-304 -117.5q-143 0 -321 64z" />
<glyph unicode="K" horiz-adv-x="1351" d="M190 0v1456h254v-636l561 636h317l-631 -703l680 -753h-330l-594 651v-651h-257z" />
<glyph unicode="L" horiz-adv-x="1173" d="M190 0v1456h254v-1238h674v-218h-928z" />
<glyph unicode="M" horiz-adv-x="1987" d="M190 0v1456h298q31 -69 219.5 -489t289.5 -641q77 167 158.5 350.5t188 426.5t155.5 353h298v-1456h-238v1040q-53 -115 -469 -1040h-187q-52 114 -146 323.5t-172 380t-150 319.5v-1023h-245z" />
<glyph unicode="N" horiz-adv-x="1630" d="M190 0v1456h269q694 -1006 739 -1072v1072h242v-1456h-270q-671 969 -745 1074v-1074h-235z" />
<glyph unicode="O" horiz-adv-x="1671" d="M106 735q0 338 197.5 543t539.5 205q331 0 526.5 -204.5t195.5 -543.5q0 -348 -193 -553t-532 -205q-341 0 -537.5 205.5t-196.5 552.5zM380 735q0 -261 115 -401t339 -140q223 0 339 140.5t116 400.5q0 252 -116 391.5t-335 139.5q-221 0 -339.5 -139.5t-118.5 -391.5z " />
<glyph unicode="P" horiz-adv-x="1299" d="M190 0v1456h415q73 0 126.5 -2t116 -8.5t107.5 -19.5t91.5 -33.5t78 -51.5t57 -73t37.5 -99t12 -128q0 -117 -37.5 -198t-113 -127.5t-176 -67t-238.5 -20.5h-222v-628h-254zM444 845h218q73 0 124 8t93.5 28.5t63.5 60t21 97.5q0 32 -5.5 58t-13.5 45.5t-25.5 34.5 t-31 24.5t-42 16t-47 10t-56.5 5t-60 2t-68 0.5h-171v-390z" />
<glyph unicode="Q" horiz-adv-x="1671" d="M106 735q0 -347 196.5 -552.5t537.5 -205.5q51 0 91 4q60 -100 142.5 -207t134.5 -164l53 -57l139 150q-155 174 -250 329q199 79 307 262t108 441q0 339 -195.5 543.5t-526.5 204.5q-342 0 -539.5 -205t-197.5 -543zM380 735q0 252 118.5 391.5t339.5 139.5 q219 0 335 -139.5t116 -391.5q0 -260 -116 -400.5t-339 -140.5q-224 0 -339 140t-115 401z" />
<glyph unicode="R" horiz-adv-x="1388" d="M190 0v1456h525q120 0 207.5 -18t158.5 -61.5t107 -124t36 -198.5q0 -123 -73 -217.5t-220 -127.5q131 -73 193 -228l197 -481h-275l-167 433q-41 107 -89 145t-145 38h-201v-616h-254zM441 831h243q272 0 272 211q0 115 -57 155.5t-188 40.5h-270v-407z" />
<glyph unicode="S" horiz-adv-x="1256" d="M115 143l108 182q71 -55 184.5 -93t199.5 -38q135 0 199.5 50t64.5 152q0 40 -6 64.5t-27 51t-62.5 49t-111.5 47.5q-30 10 -101.5 33t-104.5 35q-180 68 -261 160.5t-81 250.5q0 128 67.5 219t179.5 134t256 43q195 0 303 -38t204 -130l-130 -168q-123 117 -341 117 q-119 0 -193.5 -41t-74.5 -125q0 -41 7 -67.5t29.5 -52t64.5 -47t112 -46.5q25 -9 104.5 -34.5t118.5 -40.5q178 -71 248 -163t70 -256q0 -109 -43 -191.5t-117 -129.5t-164 -70t-194 -23q-150 0 -289 44t-219 122z" />
<glyph unicode="T" horiz-adv-x="1181" d="M11 1238v218h1159v-218h-456v-1238h-254v1238h-449z" />
<glyph unicode="U" horiz-adv-x="1509" d="M164 599v857h254v-868q0 -90 17 -159t46.5 -113t73 -72t92 -39t107.5 -11q76 0 134.5 19t105.5 62.5t72 122.5t25 191v867h254v-858q0 -105 -14 -190t-53.5 -168t-103.5 -139t-170.5 -90t-248.5 -34q-140 0 -246 34t-170.5 89.5t-104.5 138t-55 168.5t-15 192z" />
<glyph unicode="V" horiz-adv-x="1393" d="M17 1456h285q22 -62 170.5 -483t230.5 -640q87 239 406 1123h267l-553 -1456h-252z" />
<glyph unicode="W" horiz-adv-x="2096" d="M12 1456h270q28 -105 95 -355.5t115 -435.5t91 -359q47 177 103 362.5t135.5 434t111.5 353.5h242l260 -814l100 -341q41 175 87.5 362t109 435t90.5 358h262l-406 -1456h-291l-340 1105l-332 -1105h-287z" />
<glyph unicode="X" horiz-adv-x="1407" d="M22 0l535 736l-497 720h317l340 -504l359 504h295l-508 -709l518 -747h-316l-363 532l-376 -532h-304z" />
<glyph unicode="Y" horiz-adv-x="1280" d="M-14 1456h289l361 -667l358 667h296l-531 -892v-564h-254v563z" />
<glyph unicode="Z" horiz-adv-x="1202" d="M71 0v136l689 1102h-663v218h1014v-132l-693 -1106h692v-218h-1039z" />
<glyph unicode="[" horiz-adv-x="620" d="M140 -158v1660h421v-190h-169v-1280h170v-190h-422z" />
<glyph unicode="\" horiz-adv-x="650" d="M-174 1456h275l697 -1568h-267z" />
<glyph unicode="]" horiz-adv-x="620" d="M91 32h164v1280h-163v190h416v-1660h-417v190z" />
<glyph unicode="^" horiz-adv-x="1559" d="M183 532l513 924h161l519 -924h-251l-352 641l-335 -641h-255z" />
<glyph unicode="_" horiz-adv-x="1012" d="M-14 -59h1039v-195h-1039v195z" />
<glyph unicode="`" horiz-adv-x="610" d="M-15 1455h318l262 -289h-229z" />
<glyph unicode="a" horiz-adv-x="1291" d="M108 502q0 107 32 203.5t93.5 175t162.5 125t229 46.5q186 0 286 -135v109h243v-1026h-249v140q-112 -163 -292 -163q-125 0 -224 45t-159 120t-91 167t-31 193zM354 515q0 -154 73.5 -246t216.5 -92q144 0 209.5 91.5t65.5 244.5q0 157 -69.5 247.5t-210.5 90.5 q-138 0 -211.5 -91t-73.5 -245z" />
<glyph unicode="b" horiz-adv-x="1291" d="M141 0q2 68 4 121t3 75.5t1.5 39t0.5 22.5v14v1185h246v-575q5 18 25 44t56.5 55.5t100 50t139.5 20.5q216 0 341 -149t125 -385q0 -118 -38.5 -220t-103.5 -172t-152.5 -109.5t-184.5 -39.5q-103 0 -187.5 44.5t-121.5 105.5v-127h-254zM381 515q0 -91 29.5 -165.5 t93.5 -123.5t154 -49q69 0 121.5 27.5t83 75.5t46 106t15.5 125q0 148 -66 244t-192 96q-131 0 -208 -96.5t-77 -239.5z" />
<glyph unicode="c" horiz-adv-x="1071" d="M108 514q0 152 62.5 273.5t185 193t285.5 71.5q242 0 372 -138l-89 -160q-111 98 -257 98t-224 -92t-78 -247q0 -151 83 -243.5t227 -92.5q20 0 40 2t36 5t33.5 8.5t29.5 10t27 12.5t23.5 12.5t21.5 13.5t17.5 12t16 11.5t12.5 9.5l75 -182q-86 -60 -172 -87.5 t-191 -27.5q-125 0 -228.5 44t-169.5 119t-102 171.5t-36 202.5z" />
<glyph unicode="d" horiz-adv-x="1267" d="M108 508q0 109 31 206t89.5 173t153.5 120.5t213 44.5q106 0 179.5 -43.5t102.5 -90.5v539h246v-1183q0 -6 9 -274h-254l-2 131q-9 -23 -30 -47t-56 -49.5t-91 -41.5t-123 -16q-199 0 -333.5 146t-134.5 385zM368 516q0 -69 14.5 -128t44 -107.5t81 -76t119.5 -27.5 t119 27.5t80.5 76t44 106.5t14.5 125q0 150 -65 244.5t-195 94.5q-87 0 -146.5 -47t-85 -120t-25.5 -168z" />
<glyph unicode="e" horiz-adv-x="1206" d="M108 512q0 108 36 205t101.5 172t166 119t222.5 44t213 -42t144 -117.5t78.5 -169.5t25.5 -208q0 -29 -5 -44h-720q6 -150 91.5 -222t227.5 -72q166 0 324 110l67 -180q-97 -67 -195.5 -98.5t-218.5 -31.5q-259 0 -408.5 148t-149.5 387zM373 636h510q-18 109 -81 167 t-154 58q-107 0 -179 -60t-96 -165z" />
<glyph unicode="f" horiz-adv-x="820" d="M70 860v166h191v40q0 70 3 116t13 94.5t28.5 78t50 57t77.5 42t110.5 23t149.5 8.5h53l-9 -193q-57 0 -90.5 -2t-62 -11.5t-41.5 -22t-22 -41t-11 -60t-2 -86.5v-43h231v-166h-231v-860h-247v860h-191z" />
<glyph unicode="g" horiz-adv-x="1235" d="M108 515q0 108 29 202.5t86 170.5t151.5 120t215.5 44q95 0 166.5 -38t110.5 -98v110h263q-20 -152 -20 -344v-535q0 -565 -532 -565q-200 0 -390 70l43 214q150 -78 329 -78q144 0 225 61.5t81 185.5v87q-88 -122 -257 -122q-227 0 -364 139.5t-137 375.5zM368 515 q0 -154 63 -241t195 -87q59 0 104 19.5t73 51t45.5 75.5t24 88.5t6.5 94.5q0 150 -62.5 242.5t-187.5 92.5q-86 0 -146.5 -48.5t-87.5 -122.5t-27 -165z" />
<glyph unicode="h" horiz-adv-x="1219" d="M144 0v1457h248v-564q37 71 130 115t177 44q71 0 129.5 -17t98.5 -45t70 -68.5t47 -82t27.5 -91.5t14 -91t3.5 -86v-571h-248v579q0 145 -45 208.5t-135 63.5q-102 0 -185.5 -70.5t-83.5 -162.5v-618h-248z" />
<glyph unicode="i" horiz-adv-x="524" d="M142 1238v218h240v-218h-240zM143 0v1026h239v-1026h-239z" />
<glyph unicode="j" horiz-adv-x="600" d="M-85 -335l28 170q62 -19 143 -19q36 0 58 6.5t40 27.5t26 62t8 108v1006h253v-1035q0 -90 -16.5 -152t-57 -109t-114 -69.5t-183.5 -22.5q-55 0 -101.5 7t-64.5 13zM-60 -164h3v-1zM224 1228v228h246v-228h-246z" />
<glyph unicode="k" horiz-adv-x="1076" d="M140 0v1457h248v-850l371 419h342l-489 -496l521 -530h-328l-417 444v-444h-248z" />
<glyph unicode="l" horiz-adv-x="526" d="M142 0v1457h245v-1457h-245z" />
<glyph unicode="m" horiz-adv-x="1839" d="M141 1026h261v-134q38 70 116.5 115t170.5 45q99 0 181 -48t126 -142q132 190 333 190q188 0 282.5 -113t94.5 -310v-629h-248v614q0 41 -7 79t-22.5 75.5t-46 60t-72.5 22.5q-110 0 -181 -84t-71 -186v-581h-248v627q0 30 -3.5 57.5t-13.5 59t-26.5 54.5t-46 38 t-67.5 15q-105 0 -175 -68.5t-70 -159.5v-623h-248v696q0 106 -10 218z" />
<glyph unicode="n" horiz-adv-x="1224" d="M138 1026h263v-137q53 80 141.5 121.5t171.5 41.5q89 0 156 -23.5t118.5 -76t78.5 -144.5t27 -223v-585h-248v602q0 136 -42.5 192.5t-140.5 56.5q-36 0 -79 -16t-83.5 -44.5t-67.5 -75t-27 -101.5v-614h-248v635q0 109 -5 206.5t-10 140.5z" />
<glyph unicode="o" horiz-adv-x="1286" d="M108 513q0 111 34 207.5t99.5 171t170 117.5t235.5 43q134 0 238 -42.5t167 -117t94.5 -171t31.5 -210.5q0 -107 -33 -201.5t-96.5 -169.5t-167 -119t-233.5 -44q-134 0 -239 43.5t-169.5 118t-98 170t-33.5 204.5zM366 516q0 -93 26.5 -167t91 -123t159.5 -49 q73 0 128 27.5t86.5 76t47 107.5t15.5 128q0 147 -69.5 241t-206.5 94q-93 0 -157 -46.5t-92.5 -120.5t-28.5 -168z" />
<glyph unicode="p" horiz-adv-x="1273" d="M141 1026h263v-147q12 56 100.5 114.5t216.5 58.5q135 0 238.5 -74.5t156 -193.5t52.5 -259q0 -105 -31 -202.5t-88 -175t-146 -124t-196 -46.5q-121 0 -206 57t-97 107v-536h-244v1076q0 89 -19 345zM390 519q0 -70 14.5 -129.5t44.5 -108t81.5 -76.5t119.5 -28 q69 0 120.5 27.5t81 75.5t44 106.5t14.5 127.5q0 95 -26 169t-86.5 121t-148.5 47q-87 0 -147 -46.5t-86 -119t-26 -166.5z" />
<glyph unicode="q" horiz-adv-x="1250" d="M105 528q0 104 32 198t91.5 167t152.5 116t208 43q72 0 147 -34t134 -102v110h253q-10 -135 -10 -296v-1125h-245v477q-132 -105 -281 -105q-96 0 -176 30.5t-136 83t-95 123.5t-57 150t-18 164zM363 516q0 -69 14.5 -128t44 -107.5t81 -76t119.5 -27.5q90 0 150 48.5 t85 121t25 164.5q0 149 -66 244.5t-196 95.5q-87 0 -146.5 -47t-85 -120t-25.5 -168z" />
<glyph unicode="r" horiz-adv-x="780" d="M142 1026h264v-135q61 80 121.5 120.5t136.5 40.5q45 0 102 -15v-217q-67 22 -124 22q-103 0 -168 -67t-65 -194v-581h-247v766q0 60 -5 125t-10 100z" />
<glyph unicode="s" horiz-adv-x="988" d="M106 106l62 178q63 -49 159 -80.5t185 -31.5q83 0 125.5 28t42.5 91v18q0 32 -25 54.5t-115 51.5l-146 47q-56 18 -93 33.5t-75.5 39.5t-60 52.5t-35 70t-13.5 95.5q0 78 30.5 137t84.5 93t120 50.5t145 16.5q98 0 196 -25t172 -74l-64 -170q-60 32 -140.5 54t-145.5 22 q-85 0 -123 -21t-38 -69q0 -32 12 -50t50 -37t122 -47l133 -45q80 -27 128.5 -59t78 -91t29.5 -148q0 -68 -22.5 -123t-59 -90t-86 -58t-100.5 -32.5t-105 -9.5q-135 0 -248 38t-180 91z" />
<glyph unicode="t" horiz-adv-x="804" d="M1 860v166h224v240l237 73v-313h268v-166h-268v-499q0 -48 7.5 -77.5t22.5 -49t50.5 -28.5t77.5 -12t118 -3v-190h-100q-60 0 -104 3t-90.5 13t-79 26.5t-62.5 44.5t-48 67.5t-28.5 94.5t-10.5 126v484h-214z" />
<glyph unicode="u" horiz-adv-x="1186" d="M130 376v650h246v-646q0 -102 53 -152.5t146 -50.5q111 0 164.5 55.5t53.5 178.5v615h248v-750l12 -276h-256l-4 152q-5 -22 -22.5 -48.5t-48 -56.5t-83 -50t-115.5 -20q-186 0 -290 106.5t-104 292.5z" />
<glyph unicode="v" horiz-adv-x="1126" d="M17 1026h276q266 -715 279 -749q79 215 269 749h269l-436 -1026h-225z" />
<glyph unicode="w" horiz-adv-x="1685" d="M14 1026h264q156 -480 234 -721q40 121 242 721h216q26 -80 72.5 -227.5t85 -268t73.5 -227.5q29 91 239 723h231l-389 -1026h-207q-211 631 -233 698q-39 -111 -248 -698h-208z" />
<glyph unicode="x" horiz-adv-x="1040" d="M11 0l370 500l-353 526h276l221 -331l246 331h256l-362 -492l364 -534h-275l-232 339l-250 -339h-261z" />
<glyph unicode="y" horiz-adv-x="1114" d="M30 1026h258l297 -736l256 736h253l-416 -1082q-43 -106 -113 -187.5t-146 -127.5t-165 -74l-104 168q139 54 208.5 111.5t93.5 138.5l14 50z" />
<glyph unicode="z" horiz-adv-x="997" d="M97 0v131l484 697h-459v198h781v-129l-488 -700h514v-197h-832z" />
<glyph unicode="{" horiz-adv-x="987" d="M149 606v149h13q109 0 145 35.5t36 142.5v231q0 83 7 137.5t29 99.5t56 70t95 42.5t139 23t195 5.5v-195h-77q-45 0 -69.5 -1t-49.5 -7t-35.5 -16t-20 -30.5t-12 -47.5t-2.5 -69v-223q0 -263 -244 -270q244 -3 244 -259v-226q0 -48 2 -76.5t16 -51t25.5 -32t50.5 -15.5 t69 -7t102 -1h1v-195h-9q-116 0 -194.5 6.5t-138 25t-93 44.5t-54 72.5t-27 100.5t-6.5 137v230q0 102 -37 136t-143 34h-13z" />
<glyph unicode="|" horiz-adv-x="395" d="M79 -455v1961h237v-1961h-237z" />
<glyph unicode="}" horiz-adv-x="982" d="M107 1346v196h9q116 0 194.5 -6.5t138 -25.5t93 -45t54 -72.5t27 -100.5t6.5 -137v-230q0 -102 37.5 -136t143.5 -34h13v-149h-13q-109 0 -145 -35.5t-36 -142.5v-231q0 -83 -7 -137.5t-29 -99.5t-56 -69.5t-95 -42t-139 -23t-195 -5.5v194h77q45 0 69.5 1t49.5 7 t35.5 16t20 30.5t12 47.5t2.5 69v223q0 263 244 271q-244 1 -244 258v226q0 48 -2 76.5t-16 51t-25.5 32t-50.5 15.5t-69.5 7t-102.5 1h-1z" />
<glyph unicode="~" horiz-adv-x="1508" d="M182 441q27 93 58.5 152.5t70 88t74.5 38t87 9.5q112 0 293 -64q154 -59 258 -59q39 0 57 8t33 39.5t31 102.5l158 -71q-31 -123 -68 -187t-79 -84t-112 -20q-121 0 -337 70q-146 50 -215 50q-63 0 -92.5 -26t-63.5 -121z" />
<glyph horiz-adv-x="1521" d="M188 0v1456h1145v-1456h-1145zM360 124h801v1206h-801v-1206z" />
<glyph unicode="&#xa1;" horiz-adv-x="786" d="M223 883v273h314v-273h-314zM234 -300l74 1069h147l74 -1069h-295z" />
<glyph unicode="&#xa2;" horiz-adv-x="1076" d="M108 514q0 -102 33 -195.5t95 -167t157.5 -120t212.5 -53.5v-220h138v226q136 20 263 108l-75 182q-1 -1 -12.5 -9.5t-16.5 -12t-18 -12.5t-22.5 -14t-24.5 -12.5t-28.5 -12.5t-30.5 -10t-35 -8v662q99 -19 180 -91l89 160q-101 107 -269 131v205h-138v-199 q-230 -12 -364 -162t-134 -375zM365 513q0 137 61.5 226t179.5 108v-664q-114 22 -177.5 110.5t-63.5 219.5z" />
<glyph unicode="&#xa3;" horiz-adv-x="1255" d="M146 0v186q5 5 32.5 30t37.5 36.5t33 40.5t33.5 56t24 67.5t19 92t5.5 113.5v27h-185v193h182v50q0 105 11.5 186.5t43.5 160.5t85 130.5t140.5 83t205.5 31.5q203 0 338 -73l-61 -192q-139 63 -261 63q-131 0 -191 -76.5t-60 -256.5v-107h338v-193h-339v-31 q0 -155 -15.5 -254t-59.5 -160h675v-204h-1032z" />
<glyph unicode="&#xa4;" horiz-adv-x="1218" d="M119 1471l51 51l197 -196q105 83 243 83q135 0 243 -82l195 195l51 -51l-193 -193q96 -109 96 -254q0 -139 -89 -245l186 -185l-51 -51l-186 186q-109 -90 -252 -90t-252 91l-187 -187l-51 51l187 187q-88 106 -88 243q0 144 95 252zM307 1020q0 -131 86 -220.5 t216 -89.5t216 89.5t86 220.5t-86 221t-216 90t-216 -90t-86 -221z" />
<glyph unicode="&#xa5;" horiz-adv-x="1280" d="M-12 1456h289l361 -667l358 667h296l-445 -747h284v-150h-370v-140h373v-144h-373v-275h-254v275h-371v144h371v140h-371v150h286z" />
<glyph unicode="&#xa6;" horiz-adv-x="500" d="M92 565v941h247v-941h-247zM94 415h247v-870h-247v870z" />
<glyph unicode="&#xa7;" horiz-adv-x="1104" d="M171 712q0 138 130 231q-56 44 -81.5 100t-25.5 136q0 148 110 225t279 77q151 0 299 -50v-202q-17 3 -66.5 19t-102 28t-97.5 12q-61 0 -105 -24.5t-44 -70.5q0 -44 53.5 -87t162.5 -94q66 -34 102.5 -57t80 -59t63.5 -79t20 -95q0 -123 -129 -229q120 -70 120 -231 q0 -107 -58.5 -181.5t-150.5 -108t-209 -33.5q-170 0 -335 61v209q69 -27 159 -46t166 -19q68 0 111.5 28t43.5 84q0 33 -49.5 64t-238.5 122q-97 46 -152.5 115t-55.5 155zM425 733q0 -20 7.5 -33.5t29 -27t40.5 -21.5t63.5 -26t77.5 -33q31 41 31 93q0 17 -3 30.5 t-13.5 25.5t-18.5 20t-29 19t-33.5 17t-44 20t-48.5 22q-19 -13 -39 -41.5t-20 -64.5z" />
<glyph unicode="&#xa8;" horiz-adv-x="743" d="M18 1151v225h247v-225h-247zM476 1151v225h245v-225h-245z" />
<glyph unicode="&#xa9;" horiz-adv-x="1713" d="M106 732q0 152 59.5 291t160 240t240 160.5t291.5 59.5t291 -59.5t239.5 -160.5t160 -240t59.5 -291t-59.5 -292t-160 -241t-239.5 -161t-291 -60q-122 0 -236.5 38.5t-207 108.5t-162 162.5t-107.5 207.5t-38 237zM237 729q0 -171 82 -317t224.5 -232.5t311.5 -86.5 t311.5 86.5t224.5 232.5t82 317q0 170 -82 315.5t-224.5 231t-311.5 85.5t-311.5 -85.5t-224.5 -231t-82 -315.5zM437 727q0 191 118.5 316.5t318.5 125.5q198 0 306 -114l-72 -131q-93 80 -212 80t-182.5 -75.5t-63.5 -201.5q0 -125 66 -202t187 -77q33 0 65.5 7t50.5 13.5 t44 22.5t28.5 18t21.5 17l62 -151q-131 -92 -299 -92q-106 0 -191.5 36.5t-138.5 99t-81 141.5t-28 167z" />
<glyph unicode="&#xaa;" horiz-adv-x="868" d="M107 936q0 104 67 160t199 56h178v40q0 123 -130 123q-46 0 -102 -13.5t-89 -26.5l-34 -13l-58 145q14 8 39 19.5t105 30.5t162 19q64 0 116.5 -15t96 -47.5t67.5 -91t24 -138.5q0 -21 3 -276q3 -106 10 -154h-181l-17 98q-14 -49 -70.5 -90t-144.5 -41q-99 0 -170 56.5 t-71 158.5zM275 936q0 -38 26.5 -62t59.5 -24q30 0 60.5 10t60 29.5t48 56t18.5 83.5v14q-170 0 -221.5 -17.5t-51.5 -89.5z" />
<glyph unicode="&#xab;" horiz-adv-x="1177" d="M136 541l283 381h200l-238 -383l230 -381h-198zM577 541l283 381h200l-238 -383l230 -381h-198z" />
<glyph unicode="&#xac;" horiz-adv-x="1457" d="M163 609v205h1065v-594h-233v389h-832z" />
<glyph unicode="&#xad;" horiz-adv-x="739" d="M54 457v190h632v-190h-632z" />
<glyph unicode="&#xae;" horiz-adv-x="1713" d="M106 732q0 152 59.5 291t160 240t240 160.5t291.5 59.5t291 -59.5t239.5 -160.5t160 -240t59.5 -291t-59.5 -292t-160 -241t-239.5 -161t-291 -60q-122 0 -236.5 38.5t-207 108.5t-162 162.5t-107.5 207.5t-38 237zM237 729q0 -171 82 -317t224.5 -232.5t311.5 -86.5 t311.5 86.5t224.5 232.5t82 317q0 170 -82 315.5t-224.5 231t-311.5 85.5t-311.5 -85.5t-224.5 -231t-82 -315.5zM519 290v881h318q205 0 300.5 -66.5t95.5 -197.5q0 -194 -177 -242l188 -375h-235l-152 340h-123v-340h-215zM735 788h90q98 0 146 22.5t48 84.5q0 72 -32 90 t-144 18h-108v-215z" />
<glyph unicode="&#xaf;" horiz-adv-x="756" d="M66 1146v157h624v-157h-624z" />
<glyph unicode="&#xb0;" horiz-adv-x="886" d="M129 1157q0 128 92.5 218.5t221.5 90.5t221.5 -90t92.5 -219q0 -130 -92 -219t-222 -89q-129 0 -221.5 89.5t-92.5 218.5zM277 1156q0 -73 48 -122.5t118 -49.5q72 0 120.5 49.5t48.5 122.5t-48.5 122.5t-120.5 49.5q-71 0 -118.5 -49.5t-47.5 -122.5z" />
<glyph unicode="&#xb1;" d="M190 0v184h890v-184h-890zM190 592v200h319v307h237v-307h332v-200h-322v-301h-241v301h-325z" />
<glyph unicode="&#xb2;" horiz-adv-x="1072" d="M209 1389q166 77 325 77q130 0 214 -65.5t84 -197.5q0 -85 -55.5 -158.5t-157.5 -158.5l-89 -73h289v-200h-594v182l261 227q135 115 135 179q0 86 -102 86q-101 0 -250 -64z" />
<glyph unicode="&#xb3;" horiz-adv-x="909" d="M192 1378q155 85 318 85q120 0 196 -53.5t76 -160.5q0 -128 -137 -176q89 -24 128.5 -78.5t39.5 -119.5q0 -91 -45 -154t-113.5 -90t-152.5 -27q-164 0 -299 93l62 134q129 -75 221 -75q62 0 97 34t35 88q0 46 -41 76t-112 30h-95v142h93q57 0 95.5 28t38.5 67 q0 48 -34 73.5t-90 25.5q-99 0 -220 -65z" />
<glyph unicode="&#xb4;" horiz-adv-x="607" d="M39 1166l264 290h318l-354 -290h-228z" />
<glyph unicode="&#xb5;" horiz-adv-x="1230" d="M127 -316h306v301q33 -5 70 -5q216 0 326 172l15 -152h264v1082h-307v-797q-78 -105 -202 -105q-88 0 -127 60t-39 200v642h-306v-1398z" />
<glyph unicode="&#xb6;" horiz-adv-x="1226" d="M91 1129q0 77 23.5 134.5t64.5 93.5t103 58.5t131 31t157 8.5h494v-192h-73v-1441h-206v1441h-168v-1441h-205v967q-160 14 -240.5 101t-80.5 239z" />
<glyph unicode="&#xb7;" horiz-adv-x="600" />
<glyph unicode="&#xb8;" horiz-adv-x="529" d="M17 -426l11 132q33 -14 82 -26t92 -12q101 0 101 73q0 96 -153 119l-29 4l31 175h124l-17 -114q108 -8 165 -68t57 -140q0 -30 -6.5 -56t-18.5 -46.5t-29 -37t-37.5 -28t-45 -19.5t-50 -11.5t-53.5 -3.5q-120 0 -224 59z" />
<glyph unicode="&#xb9;" horiz-adv-x="851" d="M136 1218v171q18 5 47.5 14t91 27.5t100.5 29t35 8.5l160 -4v-676h189v-163h-612v165h219v480q5 3 -48.5 -9.5t-114.5 -27t-67 -15.5z" />
<glyph unicode="&#xba;" horiz-adv-x="913" d="M73 1080q0 157 103.5 260t280.5 103q178 0 280.5 -104.5t102.5 -262.5q0 -155 -101.5 -259t-278.5 -104q-185 0 -286 102t-101 265zM266 1078q0 -95 51 -150t140 -55q86 0 138 56t52 147q0 96 -51.5 151.5t-137.5 55.5q-84 0 -138 -56t-54 -149z" />
<glyph unicode="&#xbb;" horiz-adv-x="1177" d="M134 158l239 383l-231 381h199l277 -383l-283 -381h-201zM575 158l239 383l-231 381h199l277 -383l-283 -381h-201z" />
<glyph unicode="&#xbc;" horiz-adv-x="2113" d="M212 1204v175q17 5 45.5 13.5t88 26t97.5 28.5t35 9h156v-672h184v-165h-593v167h211v471zM629 0l885 1456h213l-884 -1456h-214zM1362 195v113l369 506h180v-485h116v-134h-116v-194h-180v194h-369zM1551 329h178v254z" />
<glyph unicode="&#xbd;" horiz-adv-x="2554" d="M181 1204v175q17 5 45.5 13.5t88 26t97.5 28.5t35 9h156v-672h184v-165h-593v167h211v471zM638 0l885 1456h213l-884 -1456h-214zM1591 768q158 83 322 83q82 0 145 -26t104 -85.5t45 -148.5v-11q0 -84 -56.5 -160.5t-156.5 -154.5l-93 -72h294v-193h-590v169l274 220 q73 59 99.5 97t26.5 76q0 113 -107 113q-109 0 -245 -67z" />
<glyph unicode="&#xbe;" horiz-adv-x="2534" d="M228 1376q154 86 315 86q120 0 195 -54.5t75 -161.5q0 -133 -139 -176q90 -22 130 -76.5t40 -121.5q0 -133 -88.5 -201t-219.5 -68q-166 0 -297 94l61 135q125 -76 221 -76q63 0 98 32t35 87q0 48 -42.5 78.5t-115.5 30.5h-92v143h90q59 0 98.5 26t39.5 67q0 96 -122 96 q-104 0 -221 -66zM650 0l885 1456h213l-884 -1456h-214zM1393 195v113l368 506h181v-485h115v-134h-115v-194h-180v194h-369zM1582 329h178v254z" />
<glyph unicode="&#xbf;" horiz-adv-x="1032" d="M107 40q0 61 22.5 116t58.5 97t79.5 81.5t87 78t79.5 78.5t58.5 90.5t22.5 106.5v65h199v-137q0 -53 -19.5 -103t-50 -90t-68 -78.5t-75 -74t-68 -70t-50 -74t-19.5 -79.5q0 -78 55.5 -114.5t147.5 -36.5q78 0 164.5 22t137.5 44v-211q-135 -72 -325 -72 q-119 0 -216 38.5t-159 122t-62 200.5zM443 891v273h313v-273h-313z" />
<glyph unicode="&#xc0;" horiz-adv-x="1458" d="M12 0l585 1456h258l590 -1456h-287l-141 355h-588l-138 -355h-279zM275 1885h318l262 -289h-229zM524 592h390q-115 341 -193 567q-65 -189 -197 -567z" />
<glyph unicode="&#xc1;" horiz-adv-x="1458" d="M12 0l585 1456h258l590 -1456h-287l-141 355h-588l-138 -355h-279zM524 592h390q-115 341 -193 567q-65 -189 -197 -567zM620 1596l264 290h318l-354 -290h-228z" />
<glyph unicode="&#xc2;" horiz-adv-x="1458" d="M12 0l585 1456h258l590 -1456h-287l-141 355h-588l-138 -355h-279zM341 1615l257 370h252l265 -370h-247l-136 196l-139 -196h-252zM524 592h390q-115 341 -193 567q-65 -189 -197 -567z" />
<glyph unicode="&#xc3;" horiz-adv-x="1458" d="M12 0l585 1456h258l590 -1456h-287l-141 355h-588l-138 -355h-279zM274 1609q0 128 60.5 209.5t157.5 81.5q51 0 109.5 -25t107 -52t68.5 -30q3 0 8 -0.5t7 -0.5q30 0 46.5 22.5t15.5 85.5h162q0 -148 -60 -221.5t-165 -74.5h-1q-42 0 -101 27t-111 53.5t-76 26.5 q-22 0 -42.5 -25t-25.5 -77h-160zM524 592h390q-115 341 -193 567q-65 -189 -197 -567z" />
<glyph unicode="&#xc4;" horiz-adv-x="1458" d="M12 0l585 1456h258l590 -1456h-287l-141 355h-588l-138 -355h-279zM372 1581v225h247v-225h-247zM524 592h390q-115 341 -193 567q-65 -189 -197 -567zM830 1581v225h245v-225h-245z" />
<glyph unicode="&#xc5;" horiz-adv-x="1458" d="M12 0l585 1456h258l590 -1456h-287l-141 355h-588l-138 -355h-279zM505 1796q0 92 63.5 152.5t156.5 60.5q92 0 156.5 -60.5t64.5 -152.5q0 -91 -64.5 -152t-156.5 -61t-156 61t-64 152zM524 592h390q-115 341 -193 567q-65 -189 -197 -567zM620 1796q0 -45 31 -77 t75 -32t75.5 32t31.5 77t-31.5 76.5t-75.5 31.5t-75 -31.5t-31 -76.5z" />
<glyph unicode="&#xc6;" horiz-adv-x="2215" d="M19 0l867 1456h1084v-226h-657l34 -376h621v-220h-593l39 -408h582v-226h-848l-29 355h-584l-202 -355h-314zM634 558h467l-47 672h-34z" />
<glyph unicode="&#xc7;" horiz-adv-x="1436" d="M106 727q0 148 40.5 273.5t109.5 213t160 149.5t192 91t207 29q286 0 486 -157l-99 -177q-166 115 -366 115q-93 0 -176.5 -37t-147.5 -104t-102 -169t-38 -224q0 -241 136 -387t344 -146q219 0 402 147l85 -201q-212 -165 -504 -165q-144 0 -274 49.5t-232 141.5 t-162.5 236.5t-60.5 321.5zM636 -426l11 132q33 -14 82 -26t92 -12q101 0 101 73q0 96 -153 119l-29 4l31 175h124l-17 -114q108 -8 165 -68t57 -140q0 -30 -6.5 -56t-18.5 -46.5t-29 -37t-37.5 -28t-45 -19.5t-50 -11.5t-53.5 -3.5q-120 0 -224 59z" />
<glyph unicode="&#xc8;" horiz-adv-x="1249" d="M190 0v1456h919v-218h-665v-389h629v-219h-626v-412h691v-218h-948zM214 1885h318l262 -289h-229z" />
<glyph unicode="&#xc9;" horiz-adv-x="1249" d="M190 0v1456h919v-218h-665v-389h629v-219h-626v-412h691v-218h-948zM559 1596l264 290h318l-354 -290h-228z" />
<glyph unicode="&#xca;" horiz-adv-x="1249" d="M190 0v1456h919v-218h-665v-389h629v-219h-626v-412h691v-218h-948zM279 1615l257 370h252l265 -370h-247l-136 196l-139 -196h-252z" />
<glyph unicode="&#xcb;" horiz-adv-x="1249" d="M190 0v1456h919v-218h-665v-389h629v-219h-626v-412h691v-218h-948zM310 1581v225h247v-225h-247zM768 1581v225h245v-225h-245z" />
<glyph unicode="&#xcc;" horiz-adv-x="586" d="M-169 1885h318l262 -289h-229zM160 0v1456h254v-1456h-254z" />
<glyph unicode="&#xcd;" horiz-adv-x="586" d="M160 0v1456h254v-1456h-254zM176 1596l264 290h318l-354 -290h-228z" />
<glyph unicode="&#xce;" horiz-adv-x="586" d="M-104 1615l257 370h252l265 -370h-247l-136 196l-139 -196h-252zM160 0v1456h254v-1456h-254z" />
<glyph unicode="&#xcf;" horiz-adv-x="586" d="M-73 1581v225h247v-225h-247zM160 0v1456h254v-1456h-254zM385 1581v225h245v-225h-245z" />
<glyph unicode="&#xd0;" horiz-adv-x="1571" d="M27 665v150h620v-150h-620zM190 0v1456h406q437 0 653 -185.5t216 -533.5q0 -361 -211.5 -549t-616.5 -188h-447zM444 218h206q264 0 405 132t141 388q0 243 -142.5 371.5t-434.5 128.5h-175v-1020z" />
<glyph unicode="&#xd1;" horiz-adv-x="1630" d="M190 0v1456h269q694 -1006 739 -1072v1072h242v-1456h-270q-671 969 -745 1074v-1074h-235zM381 1609q0 128 60.5 209.5t157.5 81.5q51 0 109.5 -25t107 -52t68.5 -30q3 0 8 -0.5t7 -0.5q30 0 46.5 22.5t15.5 85.5h162q0 -148 -60 -221.5t-165 -74.5h-1q-42 0 -101 27 t-111 53.5t-76 26.5q-22 0 -42.5 -25t-25.5 -77h-160z" />
<glyph unicode="&#xd2;" horiz-adv-x="1671" d="M106 735q0 338 197.5 543t539.5 205q331 0 526.5 -204.5t195.5 -543.5q0 -348 -193 -553t-532 -205q-341 0 -537.5 205.5t-196.5 552.5zM380 735q0 -261 115 -401t339 -140q223 0 339 140.5t116 400.5q0 252 -116 391.5t-335 139.5q-221 0 -339.5 -139.5t-118.5 -391.5z M382 1885h318l262 -289h-229z" />
<glyph unicode="&#xd3;" horiz-adv-x="1671" d="M106 735q0 338 197.5 543t539.5 205q331 0 526.5 -204.5t195.5 -543.5q0 -348 -193 -553t-532 -205q-341 0 -537.5 205.5t-196.5 552.5zM380 735q0 -261 115 -401t339 -140q223 0 339 140.5t116 400.5q0 252 -116 391.5t-335 139.5q-221 0 -339.5 -139.5t-118.5 -391.5z M727 1596l264 290h318l-354 -290h-228z" />
<glyph unicode="&#xd4;" horiz-adv-x="1671" d="M106 735q0 338 197.5 543t539.5 205q331 0 526.5 -204.5t195.5 -543.5q0 -348 -193 -553t-532 -205q-341 0 -537.5 205.5t-196.5 552.5zM380 735q0 -261 115 -401t339 -140q223 0 339 140.5t116 400.5q0 252 -116 391.5t-335 139.5q-221 0 -339.5 -139.5t-118.5 -391.5z M448 1615l257 370h252l265 -370h-247l-136 196l-139 -196h-252z" />
<glyph unicode="&#xd5;" horiz-adv-x="1671" d="M106 735q0 338 197.5 543t539.5 205q331 0 526.5 -204.5t195.5 -543.5q0 -348 -193 -553t-532 -205q-341 0 -537.5 205.5t-196.5 552.5zM380 735q0 -261 115 -401t339 -140q223 0 339 140.5t116 400.5q0 252 -116 391.5t-335 139.5q-221 0 -339.5 -139.5t-118.5 -391.5z M381 1609q0 128 60.5 209.5t157.5 81.5q51 0 109.5 -25t107 -52t68.5 -30q3 0 8 -0.5t7 -0.5q30 0 46.5 22.5t15.5 85.5h162q0 -148 -60 -221.5t-165 -74.5h-1q-42 0 -101 27t-111 53.5t-76 26.5q-22 0 -42.5 -25t-25.5 -77h-160z" />
<glyph unicode="&#xd6;" horiz-adv-x="1671" d="M106 735q0 338 197.5 543t539.5 205q331 0 526.5 -204.5t195.5 -543.5q0 -348 -193 -553t-532 -205q-341 0 -537.5 205.5t-196.5 552.5zM380 735q0 -261 115 -401t339 -140q223 0 339 140.5t116 400.5q0 252 -116 391.5t-335 139.5q-221 0 -339.5 -139.5t-118.5 -391.5z M479 1581v225h247v-225h-247zM937 1581v225h245v-225h-245z" />
<glyph unicode="&#xd7;" d="M201 278l269 269l-269 269l161 161l269 -268l271 268l160 -160l-270 -270l270 -271l-160 -160l-271 270l-269 -270z" />
<glyph unicode="&#xd8;" horiz-adv-x="1671" d="M106 735q0 -220 82 -387.5t235 -262.5l-86 -160l115 -53l84 157q136 -52 304 -52q339 0 532 205t193 553q0 213 -80.5 377.5t-229.5 259.5l81 151l-116 52l-78 -145q-133 53 -299 53q-342 0 -539.5 -205t-197.5 -543zM380 735q0 252 118.5 391.5t339.5 139.5 q111 0 197 -37l-501 -936q-154 136 -154 442zM642 227l499 933q148 -137 148 -425q0 -260 -116 -400.5t-339 -140.5q-110 0 -192 33z" />
<glyph unicode="&#xd9;" horiz-adv-x="1509" d="M164 599v857h254v-868q0 -90 17 -159t46.5 -113t73 -72t92 -39t107.5 -11q76 0 134.5 19t105.5 62.5t72 122.5t25 191v867h254v-858q0 -105 -14 -190t-53.5 -168t-103.5 -139t-170.5 -90t-248.5 -34q-140 0 -246 34t-170.5 89.5t-104.5 138t-55 168.5t-15 192zM290 1885 h318l262 -289h-229z" />
<glyph unicode="&#xda;" horiz-adv-x="1509" d="M164 599v857h254v-868q0 -90 17 -159t46.5 -113t73 -72t92 -39t107.5 -11q76 0 134.5 19t105.5 62.5t72 122.5t25 191v867h254v-858q0 -105 -14 -190t-53.5 -168t-103.5 -139t-170.5 -90t-248.5 -34q-140 0 -246 34t-170.5 89.5t-104.5 138t-55 168.5t-15 192zM635 1596 l264 290h318l-354 -290h-228z" />
<glyph unicode="&#xdb;" horiz-adv-x="1509" d="M164 599v857h254v-868q0 -90 17 -159t46.5 -113t73 -72t92 -39t107.5 -11q76 0 134.5 19t105.5 62.5t72 122.5t25 191v867h254v-858q0 -105 -14 -190t-53.5 -168t-103.5 -139t-170.5 -90t-248.5 -34q-140 0 -246 34t-170.5 89.5t-104.5 138t-55 168.5t-15 192zM356 1615 l257 370h252l265 -370h-247l-136 196l-139 -196h-252z" />
<glyph unicode="&#xdc;" horiz-adv-x="1509" d="M164 599v857h254v-868q0 -90 17 -159t46.5 -113t73 -72t92 -39t107.5 -11q76 0 134.5 19t105.5 62.5t72 122.5t25 191v867h254v-858q0 -105 -14 -190t-53.5 -168t-103.5 -139t-170.5 -90t-248.5 -34q-140 0 -246 34t-170.5 89.5t-104.5 138t-55 168.5t-15 192zM387 1581 v225h247v-225h-247zM845 1581v225h245v-225h-245z" />
<glyph unicode="&#xdd;" horiz-adv-x="1281" d="M-14 1456h289l361 -667l358 667h296l-531 -892v-564h-254v563zM545 1596l264 290h318l-354 -290h-228z" />
<glyph unicode="&#xde;" horiz-adv-x="1300" d="M190 0v1456h253v-233h157q111 0 197.5 -10.5t168.5 -40.5t136 -79t86.5 -130t32.5 -190q0 -91 -32 -166t-88 -126.5t-132.5 -87t-164 -51.5t-184.5 -16h-180v-326h-250zM440 545h221q287 0 287 229q0 69 -22.5 115.5t-68.5 72t-104 35.5t-141 10h-172v-462z" />
<glyph unicode="&#xdf;" horiz-adv-x="1265" d="M144 1000q-1 238 122 358t341 120q192 0 314 -89t122 -228q0 -92 -50.5 -178t-141.5 -131q-49 -25 -107 -41q95 -21 174.5 -58t143.5 -92t100 -133.5t36 -173.5q0 -170 -106 -273t-264 -103q-78 0 -159 15t-123 29l-42 15l44 193q13 -6 34 -15t78 -24.5t103 -15.5 q159 0 159 160q0 113 -77.5 194.5t-273.5 179.5v188q80 35 140.5 103.5t60.5 145.5q0 62 -48.5 98t-115.5 36q-100 0 -160.5 -72.5t-60.5 -208.5v-999h-240z" />
<glyph unicode="&#xe0;" horiz-adv-x="1291" d="M108 502q0 107 32 203.5t93.5 175t162.5 125t229 46.5q186 0 286 -135v109h243v-1026h-249v140q-112 -163 -292 -163q-125 0 -224 45t-159 120t-91 167t-31 193zM237 1455h318l262 -289h-229zM354 515q0 -154 73.5 -246t216.5 -92q144 0 209.5 91.5t65.5 244.5 q0 157 -69.5 247.5t-210.5 90.5q-138 0 -211.5 -91t-73.5 -245z" />
<glyph unicode="&#xe1;" horiz-adv-x="1291" d="M108 502q0 107 32 203.5t93.5 175t162.5 125t229 46.5q186 0 286 -135v109h243v-1026h-249v140q-112 -163 -292 -163q-125 0 -224 45t-159 120t-91 167t-31 193zM354 515q0 -154 73.5 -246t216.5 -92q144 0 209.5 91.5t65.5 244.5q0 157 -69.5 247.5t-210.5 90.5 q-138 0 -211.5 -91t-73.5 -245zM581 1166l264 290h318l-354 -290h-228z" />
<glyph unicode="&#xe2;" horiz-adv-x="1291" d="M108 502q0 107 32 203.5t93.5 175t162.5 125t229 46.5q186 0 286 -135v109h243v-1026h-249v140q-112 -163 -292 -163q-125 0 -224 45t-159 120t-91 167t-31 193zM302 1185l257 370h252l265 -370h-247l-136 196l-139 -196h-252zM354 515q0 -154 73.5 -246t216.5 -92 q144 0 209.5 91.5t65.5 244.5q0 157 -69.5 247.5t-210.5 90.5q-138 0 -211.5 -91t-73.5 -245z" />
<glyph unicode="&#xe3;" horiz-adv-x="1291" d="M108 502q0 107 32 203.5t93.5 175t162.5 125t229 46.5q186 0 286 -135v109h243v-1026h-249v140q-112 -163 -292 -163q-125 0 -224 45t-159 120t-91 167t-31 193zM235 1179q0 128 60.5 209.5t157.5 81.5q51 0 109.5 -25t107 -52t68.5 -30q3 0 8 -0.5t7 -0.5 q30 0 46.5 22.5t15.5 85.5h162q0 -148 -60 -221.5t-165 -74.5h-1q-42 0 -101 27t-111 53.5t-76 26.5q-22 0 -42.5 -25t-25.5 -77h-160zM354 515q0 -154 73.5 -246t216.5 -92q144 0 209.5 91.5t65.5 244.5q0 157 -69.5 247.5t-210.5 90.5q-138 0 -211.5 -91t-73.5 -245z" />
<glyph unicode="&#xe4;" horiz-adv-x="1291" d="M108 502q0 107 32 203.5t93.5 175t162.5 125t229 46.5q186 0 286 -135v109h243v-1026h-249v140q-112 -163 -292 -163q-125 0 -224 45t-159 120t-91 167t-31 193zM333 1151v225h247v-225h-247zM354 515q0 -154 73.5 -246t216.5 -92q144 0 209.5 91.5t65.5 244.5 q0 157 -69.5 247.5t-210.5 90.5q-138 0 -211.5 -91t-73.5 -245zM791 1151v225h245v-225h-245z" />
<glyph unicode="&#xe5;" horiz-adv-x="1291" d="M108 502q0 107 32 203.5t93.5 175t162.5 125t229 46.5q186 0 286 -135v109h243v-1026h-249v140q-112 -163 -292 -163q-125 0 -224 45t-159 120t-91 167t-31 193zM354 515q0 -154 73.5 -246t216.5 -92q144 0 209.5 91.5t65.5 244.5q0 157 -69.5 247.5t-210.5 90.5 q-138 0 -211.5 -91t-73.5 -245zM466 1366q0 92 63.5 152.5t156.5 60.5q92 0 156.5 -60.5t64.5 -152.5q0 -91 -64.5 -152t-156.5 -61t-156 61t-64 152zM581 1366q0 -45 31 -77t75 -32t75.5 32t31.5 77t-31.5 76.5t-75.5 31.5t-75 -31.5t-31 -76.5z" />
<glyph unicode="&#xe6;" horiz-adv-x="1776" d="M70 294q0 195 146.5 269.5t478.5 74.5h41q-2 99 -61 160t-166 61q-117 0 -286 -81l-72 164q182 110 413 110q84 0 177.5 -49.5t139.5 -138.5q46 88 147.5 138t200.5 50h3q112 -1 195.5 -43t133 -116t73.5 -168t24 -206l-5 -52h-677v-19q26 -271 278 -271h9q73 2 151.5 30 t120.5 55l42 27l67 -181q-7 -5 -19.5 -14t-53.5 -31t-83.5 -39.5t-106.5 -31.5t-126 -15h-12q-143 0 -238 44t-148 151q-51 -102 -156 -148t-227 -46q-186 0 -295 82.5t-109 233.5zM311 304q0 -65 47.5 -96t122.5 -31q54 0 98 17.5t72 45.5t47 66.5t27.5 78t9.5 82.5h-100 q-65 0 -120.5 -8.5t-102.5 -26.5t-74 -51t-27 -77zM979 632h462l-1 23q-3 103 -67.5 160t-145.5 57q-96 0 -158.5 -66.5t-89.5 -173.5z" />
<glyph unicode="&#xe7;" horiz-adv-x="1071" d="M108 514q0 152 62.5 273.5t185 193t285.5 71.5q242 0 372 -138l-89 -160q-111 98 -257 98t-224 -92t-78 -247q0 -151 83 -243.5t227 -92.5q20 0 40 2t36 5t33.5 8.5t29.5 10t27 12.5t23.5 12.5t21.5 13.5t17.5 12t16 11.5t12.5 9.5l75 -182q-86 -60 -172 -87.5 t-191 -27.5q-125 0 -228.5 44t-169.5 119t-102 171.5t-36 202.5zM425 -426l11 132q33 -14 82 -26t92 -12q101 0 101 73q0 96 -153 119l-29 4l31 175h124l-17 -114q108 -8 165 -68t57 -140q0 -30 -6.5 -56t-18.5 -46.5t-29 -37t-37.5 -28t-45 -19.5t-50 -11.5t-53.5 -3.5 q-120 0 -224 59z" />
<glyph unicode="&#xe8;" horiz-adv-x="1206" d="M108 512q0 108 36 205t101.5 172t166 119t222.5 44t213 -42t144 -117.5t78.5 -169.5t25.5 -208q0 -29 -5 -44h-720q6 -150 91.5 -222t227.5 -72q166 0 324 110l67 -180q-97 -67 -195.5 -98.5t-218.5 -31.5q-259 0 -408.5 148t-149.5 387zM223 1455h318l262 -289h-229z M373 636h510q-18 109 -81 167t-154 58q-107 0 -179 -60t-96 -165z" />
<glyph unicode="&#xe9;" horiz-adv-x="1206" d="M108 512q0 108 36 205t101.5 172t166 119t222.5 44t213 -42t144 -117.5t78.5 -169.5t25.5 -208q0 -29 -5 -44h-720q6 -150 91.5 -222t227.5 -72q166 0 324 110l67 -180q-97 -67 -195.5 -98.5t-218.5 -31.5q-259 0 -408.5 148t-149.5 387zM373 636h510q-18 109 -81 167 t-154 58q-107 0 -179 -60t-96 -165zM568 1166l264 290h318l-354 -290h-228z" />
<glyph unicode="&#xea;" horiz-adv-x="1206" d="M108 512q0 108 36 205t101.5 172t166 119t222.5 44t213 -42t144 -117.5t78.5 -169.5t25.5 -208q0 -29 -5 -44h-720q6 -150 91.5 -222t227.5 -72q166 0 324 110l67 -180q-97 -67 -195.5 -98.5t-218.5 -31.5q-259 0 -408.5 148t-149.5 387zM243 1185l257 370h252l265 -370 h-247l-136 196l-139 -196h-252zM373 636h510q-18 109 -81 167t-154 58q-107 0 -179 -60t-96 -165z" />
<glyph unicode="&#xeb;" horiz-adv-x="1206" d="M108 512q0 108 36 205t101.5 172t166 119t222.5 44t213 -42t144 -117.5t78.5 -169.5t25.5 -208q0 -29 -5 -44h-720q6 -150 91.5 -222t227.5 -72q166 0 324 110l67 -180q-97 -67 -195.5 -98.5t-218.5 -31.5q-259 0 -408.5 148t-149.5 387zM320 1151v225h247v-225h-247z M373 636h510q-18 109 -81 167t-154 58q-107 0 -179 -60t-96 -165zM778 1151v225h245v-225h-245z" />
<glyph unicode="&#xec;" horiz-adv-x="485" d="M-228 1455h318l262 -289h-229zM103 0v1026h249v-1026h-249z" />
<glyph unicode="&#xed;" horiz-adv-x="485" d="M103 0v1026h249v-1026h-249zM117 1166l264 290h318l-354 -290h-228z" />
<glyph unicode="&#xee;" horiz-adv-x="485" d="M-163 1185l257 370h252l265 -370h-247l-136 196l-139 -196h-252zM103 0v1026h249v-1026h-249z" />
<glyph unicode="&#xef;" horiz-adv-x="485" d="M-132 1151v225h247v-225h-247zM103 0v1026h249v-1026h-249zM326 1151v225h245v-225h-245z" />
<glyph unicode="&#xf0;" horiz-adv-x="1217" d="M99 471q0 200 112.5 315.5t318.5 115.5q204 0 344 -149q0 6 2 26.5t2 34.5q0 149 -209 301l-253 -126l-66 133l160 79q-71 23 -214 57l78 159q45 0 143.5 -27t200.5 -84l256 128l66 -134l-185 -91q245 -212 245 -588q0 -338 -132.5 -492t-384.5 -154q-109 0 -201 40.5 t-153.5 109t-95.5 158t-34 188.5zM353 449q0 -135 74.5 -206t175.5 -71q41 0 81 16.5t75.5 48.5t57.5 85t22 119q0 114 -77 183t-176 69q-45 0 -85 -14t-74 -41.5t-54 -76.5t-20 -112z" />
<glyph unicode="&#xf1;" horiz-adv-x="1224" d="M138 1026h263v-137q53 80 141.5 121.5t171.5 41.5q89 0 156 -23.5t118.5 -76t78.5 -144.5t27 -223v-585h-248v602q0 136 -42.5 192.5t-140.5 56.5q-36 0 -79 -16t-83.5 -44.5t-67.5 -75t-27 -101.5v-614h-248v635q0 109 -5 206.5t-10 140.5zM211 1179q0 128 60.5 209.5 t157.5 81.5q51 0 109.5 -25t107 -52t68.5 -30q3 0 8 -0.5t7 -0.5q30 0 46.5 22.5t15.5 85.5h162q0 -148 -60 -221.5t-165 -74.5h-1q-42 0 -101 27t-111 53.5t-76 26.5q-22 0 -42.5 -25t-25.5 -77h-160z" />
<glyph unicode="&#xf2;" horiz-adv-x="1286" d="M108 513q0 111 34 207.5t99.5 171t170 117.5t235.5 43q134 0 238 -42.5t167 -117t94.5 -171t31.5 -210.5q0 -107 -33 -201.5t-96.5 -169.5t-167 -119t-233.5 -44q-134 0 -239 43.5t-169.5 118t-98 170t-33.5 204.5zM190 1455h318l262 -289h-229zM366 516q0 -93 26.5 -167 t91 -123t159.5 -49q73 0 128 27.5t86.5 76t47 107.5t15.5 128q0 147 -69.5 241t-206.5 94q-93 0 -157 -46.5t-92.5 -120.5t-28.5 -168z" />
<glyph unicode="&#xf3;" horiz-adv-x="1286" d="M108 513q0 111 34 207.5t99.5 171t170 117.5t235.5 43q134 0 238 -42.5t167 -117t94.5 -171t31.5 -210.5q0 -107 -33 -201.5t-96.5 -169.5t-167 -119t-233.5 -44q-134 0 -239 43.5t-169.5 118t-98 170t-33.5 204.5zM366 516q0 -93 26.5 -167t91 -123t159.5 -49 q73 0 128 27.5t86.5 76t47 107.5t15.5 128q0 147 -69.5 241t-206.5 94q-93 0 -157 -46.5t-92.5 -120.5t-28.5 -168zM535 1166l264 290h318l-354 -290h-228z" />
<glyph unicode="&#xf4;" horiz-adv-x="1286" d="M108 513q0 111 34 207.5t99.5 171t170 117.5t235.5 43q134 0 238 -42.5t167 -117t94.5 -171t31.5 -210.5q0 -107 -33 -201.5t-96.5 -169.5t-167 -119t-233.5 -44q-134 0 -239 43.5t-169.5 118t-98 170t-33.5 204.5zM255 1185l257 370h252l265 -370h-247l-136 196 l-139 -196h-252zM366 516q0 -93 26.5 -167t91 -123t159.5 -49q73 0 128 27.5t86.5 76t47 107.5t15.5 128q0 147 -69.5 241t-206.5 94q-93 0 -157 -46.5t-92.5 -120.5t-28.5 -168z" />
<glyph unicode="&#xf5;" horiz-adv-x="1286" d="M108 513q0 111 34 207.5t99.5 171t170 117.5t235.5 43q134 0 238 -42.5t167 -117t94.5 -171t31.5 -210.5q0 -107 -33 -201.5t-96.5 -169.5t-167 -119t-233.5 -44q-134 0 -239 43.5t-169.5 118t-98 170t-33.5 204.5zM189 1179q0 128 60.5 209.5t157.5 81.5q51 0 109.5 -25 t107 -52t68.5 -30q3 0 8 -0.5t7 -0.5q30 0 46.5 22.5t15.5 85.5h162q0 -148 -60 -221.5t-165 -74.5h-1q-42 0 -101 27t-111 53.5t-76 26.5q-22 0 -42.5 -25t-25.5 -77h-160zM366 516q0 -93 26.5 -167t91 -123t159.5 -49q73 0 128 27.5t86.5 76t47 107.5t15.5 128 q0 147 -69.5 241t-206.5 94q-93 0 -157 -46.5t-92.5 -120.5t-28.5 -168z" />
<glyph unicode="&#xf6;" horiz-adv-x="1286" d="M108 513q0 111 34 207.5t99.5 171t170 117.5t235.5 43q134 0 238 -42.5t167 -117t94.5 -171t31.5 -210.5q0 -107 -33 -201.5t-96.5 -169.5t-167 -119t-233.5 -44q-134 0 -239 43.5t-169.5 118t-98 170t-33.5 204.5zM286 1151v225h247v-225h-247zM366 516q0 -93 26.5 -167 t91 -123t159.5 -49q73 0 128 27.5t86.5 76t47 107.5t15.5 128q0 147 -69.5 241t-206.5 94q-93 0 -157 -46.5t-92.5 -120.5t-28.5 -168zM744 1151v225h245v-225h-245z" />
<glyph unicode="&#xf7;" horiz-adv-x="1499" d="M167 449v207h1086v-207h-1086zM617 840v271h201v-271h-201zM620 -19v272h201l2 -272h-203z" />
<glyph unicode="&#xf8;" horiz-adv-x="1271" d="M108 513q0 -153 64.5 -277.5t189.5 -192.5l-89 -191l99 -47l92 196q82 -24 184 -24q130 0 233.5 44t167 119t96.5 169.5t33 201.5q0 161 -63 287.5t-189 192.5l81 174l-99 46l-84 -181q-83 22 -177 22q-131 0 -235.5 -43t-170 -117.5t-99.5 -171t-34 -207.5zM366 516 q0 94 28.5 168t92.5 120.5t157 46.5q46 0 90 -13l-276 -591q-92 92 -92 269zM552 190l276 592q92 -91 92 -266q0 -69 -15.5 -128t-47 -107.5t-86.5 -76t-128 -27.5q-52 0 -91 13z" />
<glyph unicode="&#xf9;" horiz-adv-x="1186" d="M130 376v650h246v-646q0 -102 53 -152.5t146 -50.5q111 0 164.5 55.5t53.5 178.5v615h248v-750l12 -276h-256l-4 152q-5 -22 -22.5 -48.5t-48 -56.5t-83 -50t-115.5 -20q-186 0 -290 106.5t-104 292.5zM146 1455h318l262 -289h-229z" />
<glyph unicode="&#xfa;" horiz-adv-x="1186" d="M130 376v650h246v-646q0 -102 53 -152.5t146 -50.5q111 0 164.5 55.5t53.5 178.5v615h248v-750l12 -276h-256l-4 152q-5 -22 -22.5 -48.5t-48 -56.5t-83 -50t-115.5 -20q-186 0 -290 106.5t-104 292.5zM490 1166l264 290h318l-354 -290h-228z" />
<glyph unicode="&#xfb;" horiz-adv-x="1186" d="M130 376v650h246v-646q0 -102 53 -152.5t146 -50.5q111 0 164.5 55.5t53.5 178.5v615h248v-750l12 -276h-256l-4 152q-5 -22 -22.5 -48.5t-48 -56.5t-83 -50t-115.5 -20q-186 0 -290 106.5t-104 292.5zM211 1185l257 370h252l265 -370h-247l-136 196l-139 -196h-252z" />
<glyph unicode="&#xfc;" horiz-adv-x="1186" d="M130 376v650h246v-646q0 -102 53 -152.5t146 -50.5q111 0 164.5 55.5t53.5 178.5v615h248v-750l12 -276h-256l-4 152q-5 -22 -22.5 -48.5t-48 -56.5t-83 -50t-115.5 -20q-186 0 -290 106.5t-104 292.5zM242 1151v225h247v-225h-247zM700 1151v225h245v-225h-245z" />
<glyph unicode="&#xfd;" horiz-adv-x="1114" d="M30 1026h258l297 -736l256 736h253l-416 -1082q-43 -106 -113 -187.5t-146 -127.5t-165 -74l-104 168q139 54 208.5 111.5t93.5 138.5l14 50zM483 1166l264 290h318l-354 -290h-228z" />
<glyph unicode="&#xfe;" horiz-adv-x="1229" d="M140 -395v1859h238l-3 -516q41 45 124 74t147 29q115 0 208 -42t152 -115t90.5 -167.5t31.5 -201.5q0 -87 -19 -166.5t-58.5 -149.5t-96 -121.5t-136 -81t-174.5 -29.5q-71 0 -143.5 24t-128.5 61l-1 -457h-231zM373 494q0 -142 63.5 -229.5t181.5 -87.5q64 0 113 28 t78.5 76.5t44 109t14.5 130.5q0 67 -12.5 123.5t-39.5 103.5t-75 74t-114 27q-68 0 -119 -29t-79.5 -79.5t-42 -112t-13.5 -134.5z" />
<glyph unicode="&#xff;" horiz-adv-x="1114" d="M30 1026h258l297 -736l256 736h253l-416 -1082q-43 -106 -113 -187.5t-146 -127.5t-165 -74l-104 168q139 54 208.5 111.5t93.5 138.5l14 50zM234 1151v225h247v-225h-247zM692 1151v225h245v-225h-245z" />
<glyph unicode="&#x152;" horiz-adv-x="2057" d="M106 731q0 171 52.5 312t142.5 234t207.5 146t250.5 59q6 0 17.5 0.5t16.5 0.5q57 0 106.5 -8t80 -18.5t55 -24.5t33.5 -21.5t14 -12.5v58h836v-217h-583v-385h546v-218h-543v-419h608v-217h-864v62q-3 -3 -14 -10.5t-35.5 -20.5t-53.5 -24.5t-72.5 -20.5t-88.5 -10h-28 q-142 0 -263.5 46t-216.5 136t-149.5 237.5t-54.5 335.5zM380 725q0 -266 119.5 -408t322.5 -143h3q50 0 93.5 7t70.5 16.5t49 22t30.5 19.5t13.5 12v940q-96 77 -242 77q-28 0 -60 -3q-62 -7 -117.5 -27.5t-108 -62t-90.5 -101t-61 -149t-23 -200.5zM1082 251z" />
<glyph unicode="&#x153;" horiz-adv-x="2003" d="M101 511q0 237 141 389t390 152q134 0 232 -49t156 -130q63 91 150.5 136.5t223.5 45.5q218 0 341 -151t123 -405v-66h-712l2 -23q19 -233 310 -233q48 0 98.5 11.5t88 27.5t68 32.5t46.5 27.5l16 12l68 -181q-7 -5 -19 -14t-53.5 -31t-86.5 -39t-114.5 -31t-140.5 -14 q-121 0 -236 50.5t-171 130.5q-49 -79 -157.5 -130t-224.5 -51q-247 0 -393 148.5t-146 384.5zM360 511q0 -147 71 -240.5t211 -93.5q63 0 112 27t78.5 73.5t44.5 106t15 127.5q0 154 -63 247t-194 93q-130 0 -202.5 -95.5t-72.5 -244.5zM1148 641h470v21q0 92 -68 143.5 t-161 51.5q-98 0 -163.5 -54t-77.5 -162z" />
<glyph unicode="&#x178;" horiz-adv-x="1281" d="M-14 1456h289l361 -667l358 667h296l-531 -892v-564h-254v563zM296 1581v225h247v-225h-247zM754 1581v225h245v-225h-245z" />
<glyph unicode="&#x2c6;" horiz-adv-x="699" d="M-37 1185l257 370h252l265 -370h-247l-136 196l-139 -196h-252z" />
<glyph unicode="&#x2dc;" horiz-adv-x="739" d="M-2 1179q0 128 60.5 209.5t157.5 81.5q51 0 109.5 -25t107 -52t68.5 -30q3 0 8 -0.5t7 -0.5q30 0 46.5 22.5t15.5 85.5h162q0 -148 -60 -221.5t-165 -74.5h-1q-42 0 -101 27t-111 53.5t-76 26.5q-22 0 -42.5 -25t-25.5 -77h-160z" />
<glyph unicode="&#x2000;" horiz-adv-x="1004" />
<glyph unicode="&#x2001;" horiz-adv-x="2009" />
<glyph unicode="&#x2002;" horiz-adv-x="1004" />
<glyph unicode="&#x2003;" horiz-adv-x="2009" />
<glyph unicode="&#x2004;" horiz-adv-x="669" />
<glyph unicode="&#x2005;" horiz-adv-x="502" />
<glyph unicode="&#x2006;" horiz-adv-x="334" />
<glyph unicode="&#x2007;" horiz-adv-x="334" />
<glyph unicode="&#x2008;" horiz-adv-x="251" />
<glyph unicode="&#x2009;" horiz-adv-x="401" />
<glyph unicode="&#x200a;" horiz-adv-x="111" />
<glyph unicode="&#x2010;" horiz-adv-x="741" d="M54 457v190h632v-190h-632z" />
<glyph unicode="&#x2011;" horiz-adv-x="741" d="M54 457v190h632v-190h-632z" />
<glyph unicode="&#x2012;" horiz-adv-x="741" d="M54 457v190h632v-190h-632z" />
<glyph unicode="&#x2013;" horiz-adv-x="1074" d="M-15 449v209h1105v-209h-1105z" />
<glyph unicode="&#x2014;" horiz-adv-x="2171" d="M30 453v205h2111v-205h-2111z" />
<glyph unicode="&#x2018;" horiz-adv-x="576" d="M142 1456h284l38 -591h-156z" />
<glyph unicode="&#x2019;" horiz-adv-x="632" d="M112 866l98 590h280l-196 -590h-182z" />
<glyph unicode="&#x201a;" horiz-adv-x="696" d="M159 -325l115 587h275l-170 -587h-220z" />
<glyph unicode="&#x201c;" horiz-adv-x="1024" d="M130 865l191 591h209l-114 -591h-286zM592 865l179 591h210l-113 -591h-276z" />
<glyph unicode="&#x201d;" horiz-adv-x="1024" d="M176 865l110 591h276l-169 -591h-217zM592 865l114 591h272l-171 -591h-215z" />
<glyph unicode="&#x201e;" horiz-adv-x="1024" d="M87 -220l111 482h273l-162 -482h-222zM487 -220l112 482h273l-169 -482h-216z" />
<glyph unicode="&#x2022;" horiz-adv-x="989" d="M149 682q0 134 99.5 231t240.5 97q147 0 244.5 -96.5t97.5 -231.5q0 -132 -99.5 -228t-242.5 -96q-150 0 -245 95.5t-95 228.5z" />
<glyph unicode="&#x2026;" horiz-adv-x="1620" d="M115 -11v271h301l1 -271h-302zM636 -11v271h301l1 -271h-302zM1157 -11v271h299v-271h-299z" />
<glyph unicode="&#x202f;" horiz-adv-x="401" />
<glyph unicode="&#x2039;" horiz-adv-x="725" d="M138 541l283 381h200l-238 -382l230 -382h-198z" />
<glyph unicode="&#x203a;" horiz-adv-x="725" d="M91 157l238 382l-230 382h198l278 -383l-284 -381h-200z" />
<glyph unicode="&#x205f;" horiz-adv-x="502" />
<glyph unicode="&#x20ac;" horiz-adv-x="1460" d="M137 824l5 118h173q25 106 76 195.5t118 152.5t148 107t167.5 65t175.5 21q286 0 486 -157l-99 -177q-166 115 -366 115q-144 0 -261 -85.5t-169 -236.5h465l-7 -118h-486q-6 -45 -6 -94q0 -60 9 -114h454l-7 -112h-418q54 -144 172 -225.5t270 -81.5q219 0 402 147 l85 -201q-212 -165 -504 -165q-160 0 -302 59t-249.5 180t-150.5 287h-180l5 112h154q-6 54 -6 111q0 45 5 97h-159z" />
<glyph unicode="&#x2122;" horiz-adv-x="1869" d="M73 1242v170h634v-170h-224v-614h-194v614h-216zM805 628v784h228l227 -490l223 490h229v-784h-198v447l-194 -447h-122l-200 436v-436h-193z" />
<glyph unicode="&#x25fc;" horiz-adv-x="1025" d="M0 0v1025h1025v-1025h-1025z" />
<glyph unicode="&#xfb01;" horiz-adv-x="1292" d="M70 855v171h192v36q0 71 3 117t12.5 95t28.5 79t50.5 58t78.5 42.5t111.5 23t151.5 8.5h54l-10 -198q-56 0 -89 -2t-61.5 -11t-41 -22t-22 -41t-11.5 -60t-2 -88v-37h409v-171h-409v-855h-253v855h-192zM902 1238v218h240v-218h-240zM903 0v1026h239v-1026h-239z" />
<glyph unicode="&#xfb02;" horiz-adv-x="1264" d="M70 855v171h186v11q0 116 17 191t62.5 130.5t127 79.5t208.5 24h459v-1462h-252v1266h-151q-129 0 -173 -37t-44 -136v-67h230v-171h-230v-855h-254v855h-186z" />
<glyph unicode="&#xfb03;" horiz-adv-x="2235" d="M70 855v171h192v36q0 71 3 117t12.5 95t28.5 79t50.5 58t78.5 42.5t111.5 23t151.5 8.5h54l-10 -197q-56 0 -89 -2t-61.5 -11t-41 -22t-22 -41t-11.5 -60t-2 -88v-38h618v36q0 71 3 117t12.5 95t28.5 79t50.5 58t78.5 42.5t111.5 23t151.5 8.5h54l-10 -197q-56 0 -89 -2 t-61.5 -11t-41 -22t-22 -41t-11.5 -60t-2 -88v-38h711v-1026h-245v855h-466v-855h-253v855h-618v-855h-253v855h-192zM1852 1233v223h245v-223h-245z" />
<glyph unicode="&#xfb04;" horiz-adv-x="2207" d="M70 855v171h191v40q0 70 3 116t13 94.5t28.5 78t50 57t77.5 42t110.5 23t149.5 8.5h53l-9 -193q-57 0 -90.5 -2t-62 -11.5t-41.5 -22t-22 -41t-11 -60t-2 -86.5v-43h402v-171h-402v-855h-247v855h-191zM807 855v171h186v11q0 116 17 191t62.5 130.5t127 79.5t208.5 24 h459v-1462h-252v1266h-151q-129 0 -173 -37t-44 -136v-67h230v-171h-230v-855h-254v855h-186z" />
</font>
</defs>
</svg>
